Welcome to FzMovies

The Best destination for Mobile/Tablet Movies


Join our Telegram Channel to get latest updates Join @FzGroup

Follow us on Instagram @FzMovie

Follow us on Twitter to get latest updates Follow @FzGroup


MobileTVshows - TV shows / cartoons for mobiles in avi and mp4....http://www.mobiletvshows.net


Mediainfo The Official Story

The Official Story (in Hollywood Movies)
File: The_Official_Story_BluRay_high.mp4
File Size: 281 MB


General

Complete name : The_Official_Story_BluRay_high.mp4
Format : MPEG-4
Format profile : Base Media
Codec ID : isom (isom/iso2/avc1/mp41)
File size : 281 MiB
Duration : 1 h 55 min
Overall bit rate mode : Variable
Overall bit rate : 340 kb/s
Writing application : Lavf58.17.101

Video

ID : 1
Format : AVC
Format/Info : Advanced Video Codec
Format profile : [email protected]
Format settings : CABAC / 5 Ref Frames
Format settings, CABAC : Yes
Format settings, ReFrames : 5 frames
Codec ID : avc1
Codec ID/Info : Advanced Video Coding
Duration : 1 h 55 min
Bit rate : 270 kb/s
Width : 640 pixels
Height : 348 pixels
Display aspect ratio : 1.85:1
Frame rate mode : Constant
Frame rate : 24.000 FPS
Color space : YUV
Chroma subsampling : 4:2:0
Bit depth : 8 bits
Scan type : Progressive
Bits/(Pixel*Frame) : 0.051
Stream size : 223 MiB (79%)
Writing library : x264 core 157
Encoding settings : cabac=1 / ref=5 / deblock=1:-1:-1 / analyse=0x3:0x113 / me=hex / subme=8 / psy=1 / psy_rd=1.00:0.15 / mixed_ref=1 / me_range=16 / chroma_me=1 / trellis=2 / 8x8dct=1 / cqm=0 / deadzone=21,11 / fast_pskip=1 / chroma_qp_offset=-3 / threads=11 / lookahead_threads=1 / sliced_threads=0 / nr=0 / decimate=1 / interlaced=0 / bluray_compat=0 / constrained_intra=0 / bframes=3 / b_pyramid=2 / b_adapt=1 / b_bias=0 / direct=3 / weightb=1 / open_gop=0 / weightp=2 / keyint=250 / keyint_min=24 / scenecut=40 / intra_refresh=0 / rc_lookahead=50 / rc=2pass / mbtree=1 / bitrate=270 / ratetol=1.0 / qcomp=0.60 / qpmin=0 / qpmax=69 / qpstep=4 / cplxblur=20.0 / qblur=0.5 / ip_ratio=1.40 / aq=1:1.00
Menus : 3
Codec configuration box : avcC

Audio

ID : 2
Format : AAC LC SBR
Format/Info : Advanced Audio Codec Low Complexity with Spectral Band Replication
Commercial name : HE-AAC
Format settings : NBC
Codec ID : mp4a-40-5
Duration : 1 h 55 min
Bit rate mode : Variable
Bit rate : 64.0 kb/s
Maximum bit rate : 96.0 kb/s
Channel(s) : 1 channel
Channel layout : C
Sampling rate : 44.1 kHz
Frame rate : 21.533 FPS (2048 SPF)
Compression mode : Lossy
Stream size : 53.0 MiB (19%)
Language : Spanish
Default : Yes
Alternate group : 1
Menus : 3

Menu #1

ID : 3
Codec ID : text
Duration : 1 h 55 min
Language : English
Bit rate mode : CBR
Menu For : 1,2
00:00:00.000 : 00:00:00.000
00:10:44.708 : 00:10:44.708
00:20:53.833 : 00:20:53.833
00:32:15.958 : 00:32:15.958
00:40:11.458 : 00:40:11.458
00:50:22.542 : 00:50:22.542
01:01:31.125 : 01:01:31.125
01:09:12.583 : 01:09:12.583
01:20:09.792 : 01:20:09.792
01:28:13.125 : 01:28:13.125
01:39:57.167 : 01:39:57.167
01:48:14.958 : 01:48:14.958

Menu #2

00:00:00.000 : 00:00:00.000
00:10:44.708 : 00:10:44.708
00:20:53.833 : 00:20:53.833
00:32:15.958 : 00:32:15.958
00:40:11.458 : 00:40:11.458
00:50:22.542 : 00:50:22.542
01:01:31.125 : 01:01:31.125
01:09:12.583 : 01:09:12.583
01:20:09.792 : 01:20:09.792
01:28:13.125 : 01:28:13.125
01:39:57.167 : 01:39:57.167
01:48:14.958 : 01:48:14.958

Download The Official Story ()

The Official Story (in Hollywood Movies)
File: The_Official_Story_BluRay_high.mp4
File Size: 281 MB
Loading...