Welcome to FzMovies

The Best destination for Mobile/Tablet Movies


Follow us on social media for latest updates
Telegram - @FzGroup | Instagram - @FzMovie | Twitter - @FzGroup


MobileTVshows - TV shows / cartoons for mobiles in avi and mp4....http://www.mobiletvshows.net


Mediainfo Pukar

Pukar (in Bollywood Movies)
File: Pukar_WEB-DL_high.mp4
File Size: 401 MB


General

Complete name : Pukar_WEB-DL_high.mp4
Format : MPEG-4
Format profile : Base Media
Codec ID : isom (isom/iso2/avc1/mp41)
File size : 401 MiB
Duration : 2 h 45 min
Overall bit rate mode : Variable
Overall bit rate : 339 kb/s
Movie name : Pukar
Performer : Anil Kapoor, Madhuri Dixit, Sudhir Joshi, Namrata Shirodkar, Om Puri, Danny Denzongpa, Kulbhushan Kharbanda, Shivaji Satham, Farida Jalal, Rohini Hattangadi, Girish Karnad, Govind Namdeo, Aanjjan Srivastav, Mukesh Rishi, Yashpal Sharma, K.D. Chandran...
Genre : Action, Drama, Thriller
Writing application : Lavf58.17.101
Comment : DDR @ Desitorrents.tv
LongDescription : Major Jaidev Rajvansh (Anil Kapoor) and his fellow officer Hussein (Om Puri) manage to rescue a leading politician as well as capture his kidnapper, Abhrush (Danny Denzongpa). The terrorist has been wanted for years and he is finally captured by the two officers. Jai returns to a joyous welcome, and is declared a national hero. He takes a break from the army and returns to his hometown. There he meets his childhood friend Anjali (Madhuri Dixit) who has always harboured love for Jai. Anjali is determined to make sure she and Jai stay together 24/7. At a party, he meets Miss India, Pooja Mallapa (Namrata Shirodkar). As they spend more time together, he begins to love her and she too begins to love him. In the mean time, Jai's parents are arranging his marriage to Anjali but when they find out about Jai's love for Pooja, they realise that they have to tell Anjali everything.

Video

ID : 1
Format : AVC
Format/Info : Advanced Video Codec
Format profile : [email protected]
Format settings : CABAC / 5 Ref Frames
Format settings, CABAC : Yes
Format settings, ReFrames : 5 frames
Codec ID : avc1
Codec ID/Info : Advanced Video Coding
Duration : 2 h 45 min
Bit rate : 270 kb/s
Width : 640 pixels
Height : 360 pixels
Display aspect ratio : 16:9
Frame rate mode : Constant
Frame rate : 25.000 FPS
Color space : YUV
Chroma subsampling : 4:2:0
Bit depth : 8 bits
Scan type : Progressive
Bits/(Pixel*Frame) : 0.047
Stream size : 319 MiB (80%)
Title : DDR @ Desitorrents.tv
Writing library : x264 core 157
Encoding settings : cabac=1 / ref=5 / deblock=1:-1:-1 / analyse=0x3:0x113 / me=hex / subme=8 / psy=1 / psy_rd=1.00:0.15 / mixed_ref=1 / me_range=16 / chroma_me=1 / trellis=2 / 8x8dct=1 / cqm=0 / deadzone=21,11 / fast_pskip=1 / chroma_qp_offset=-3 / threads=11 / lookahead_threads=1 / sliced_threads=0 / nr=0 / decimate=1 / interlaced=0 / bluray_compat=0 / constrained_intra=0 / bframes=3 / b_pyramid=2 / b_adapt=1 / b_bias=0 / direct=3 / weightb=1 / open_gop=0 / weightp=2 / keyint=250 / keyint_min=25 / scenecut=40 / intra_refresh=0 / rc_lookahead=50 / rc=2pass / mbtree=1 / bitrate=270 / ratetol=1.0 / qcomp=0.60 / qpmin=0 / qpmax=69 / qpstep=4 / cplxblur=20.0 / qblur=0.5 / ip_ratio=1.40 / aq=1:1.00
Codec configuration box : avcC

Audio

ID : 2
Format : AAC LC SBR
Format/Info : Advanced Audio Codec Low Complexity with Spectral Band Replication
Commercial name : HE-AAC
Format settings : NBC
Codec ID : mp4a-40-5
Duration : 2 h 45 min
Duration_LastFrame : -19 ms
Bit rate mode : Variable
Bit rate : 64.0 kb/s
Maximum bit rate : 96.0 kb/s
Channel(s) : 1 channel
Channel layout : C
Sampling rate : 44.1 kHz
Frame rate : 21.533 FPS (2048 SPF)
Compression mode : Lossy
Stream size : 75.6 MiB (19%)
Title : DDR @ Desitorrents.tv
Language : Hindi
Default : Yes
Alternate group : 1

Download Pukar ()

Pukar (in Bollywood Movies)
File: Pukar_WEB-DL_high.mp4
File Size: 401 MB
Loading...